#TITLE:Spiritual Garden;
#SUBTITLE:- Mahou Shoujo Lyrical Nanoha A's Ending;
#ARTIST:Yukari Tamura;
#TITLETRANSLIT:;
#SUBTITLETRANSLIT:;
#ARTISTTRANSLIT:;
#CREDIT:koa5001;
#BANNER:Spiritual Garden banner.png;
#BACKGROUND:Spiritual Garden-bg.png;
#LYRICSPATH:Spiritual Garden.lrc;
#CDTITLE:KOA_cdtitle.png;
#MUSIC:Spiritual Garden.mp3;
#OFFSET:-0.190;
#SAMPLESTART:66.688;
#SAMPLELENGTH:19.240;
#SELECTABLE:YES;
#BPMS:0.000=105.840,16.000=94.200,17.000=91.800,18.000=87.000,19.000=42.500,20.500=133.060;
#STOPS:20.500=0.900
;
#BGCHANGES:0.000=Spiritual Garden.avi=1.000=1=0=0,
188.000=Spiritual Garden-bg.png=1.000=1=0=0,
99999=-nosongbg-=1.000=0=0=0 // don't automatically add -songbackground-
;
// cache tags:
#FIRSTBEAT:1.000;
#LASTBEAT:188.000;
#SONGFILENAME:songs/Otaku's Dream 3rd Anime Mix/[koa5001] Spiritual Garden - Mahou Shoujo Lyrical Nanoha A's ED/Spiritual Garden.sm;
#HASMUSIC:1;
#HASBANNER:1;
#MUSICLENGTH:90.752;
// end cache tags

//---------------dance-single - ----------------
#NOTES:
     dance-single:
     :
     Hard:
     7:
     0.444,0.440,0.066,0.209,0.055,257.000,6.000,19.000,0.000,0.000:
0000
0000
1000
0010
0100
0001
0010
0000
,
0100
0000
1000
0001
0000
1000
0000
0001
,
0100
1000
0100
0000
0001
0000
0010
0000
,
0100
0000
1000
0000
0010
0000
0100
0010
,
1000
0100
0010
0001
1000
0010
2020
0000
,
0000
3030
1000
0100
0001
0100
1000
0000
,
1010
0000
0010
0100
0000
0010
0000
1000
,
0100
0010
0001
0000
0100
0000
0010
0000
,
1000
0000
0002
0000
0000
0013
0100
1000
,
0100
1000
1100
0000
1000
0010
1000
0000
,
0100
0000
0020
0000
0000
0130
0000
1000
,
0010
0100
0002
0000
0013
0000
0001
0000
,
0100
0000
0010
0000
1000
0000
0100
1000
,
0010
0100
0010
1000
0100
0010
0002
0000
,
0003
0000
0100
0000
0010
0000
0000
0010
0000
0000
0000
0000
0100
0000
0000
0000
,
0001
0000
0010
0000
0100
0000
0000
0100
0000
0000
0000
0000
1000
0000
0000
0000
,
0001
0100
1000
0100
0001
0010
0100
0000
,
0010
0000
0001
0000
1000
0000
0001
0100
,
0010
2000
0000
0000
0001
0000
3001
1000
,
0010
1000
0100
1000
0010
0100
0001
0010
,
0100
1000
0000
0010
0100
0010
2000
0000
,
0001
0000
0001
0000
3001
0000
1000
0100
,
0010
0002
0000
0000
1000
0000
1003
0001
,
0010
0001
0010
0100
0010
0100
1000
0010
,
1000
0100
0000
1000
0010
0100
0002
0000
,
1000
0000
1000
0000
1003
0000
0001
0100
,
1000
0100
0000
0001
0010
0100
0020
0000
,
0000
0100
0130
1000
0001
1000
0001
0010
,
1000
0010
0000
0001
0100
0010
0200
0000
,
0000
0010
0310
0000
0100
0001
1000
0000
,
0100
0000
1000
0010
0000
1000
0100
0000
0000
0000
0010
0000
0001
0000
0000
0000
,
0100
0000
0001
0010
0000
0001
0100
0000
0000
0000
0010
0000
1000
0000
0001
0000
,
0000
0000
0010
0000
0001
0000
0100
0000
0000
0000
0010
1000
0010
0000
1000
0000
,
0100
0000
0010
0001
0010
0000
0100
0000
1000
0000
0001
0000
2000
0000
0000
0000
,
0000
0000
3001
0100
1000
0100
0001
0000
,
0011
0000
0010
0100
0000
0010
0000
0001
,
0100
0010
1000
0000
0100
0000
0010
0000
,
0001
0000
2000
0000
0000
3001
1000
0010
,
1000
0010
1010
0000
1000
0100
1000
0000
,
0010
0000
0200
0000
0000
0310
0000
1000
,
0100
0010
0002
0000
0103
0000
0010
0000
,
1000
0000
0001
0000
0010
0000
0100
1000
,
0010
1000
0100
0010
0001
0100
0002
0000
,
0003
0000
0010
0000
0100
0000
0000
0100
0000
0000
0000
0000
1000
0000
0000
0000
,
0010
0000
1000
0000
0100
0000
0000
0100
0000
0000
0000
0000
0010
0000
0000
0000
,
0100
1000
0001
2002
,
0000
0000
0000
0000
,
3003
0000
0000
0000
;

//---------------dance-single - ----------------
#NOTES:
     dance-single:
     :
     Medium:
     5:
     0.373,0.388,0.055,0.320,0.000,203.000,5.000,29.000,0.000,0.000:
0000
0000
0000
0001
,
0010
0000
0001
0100
0000
0001
0000
0010
,
0100
1000
0010
0000
0100
0000
0010
0000
,
1000
0000
0100
0000
0010
0000
0001
0100
,
0010
0100
0010
1000
0001
1000
0002
0000
,
0000
0003
1000
0100
0010
0001
0200
0000
,
0310
0000
0100
0001
0000
2000
0000
3000
,
0001
0010
0100
0000
1000
0000
0001
0000
,
0100
0000
0020
0000
0000
0030
1000
1000
,
0001
0001
1001
0000
0100
0010
0100
0000
,
0001
0000
2000
0000
0000
3001
0000
1000
,
0100
0010
0001
0000
0100
0000
0001
0000
,
0010
0000
0100
0000
1000
0000
0010
1000
,
0100
1000
0100
0010
0100
0010
0001
0000
,
0100
0000
0020
0000
0000
0000
0000
0030
,
1000
0001
2000
0000
0000
0000
3000
0000
,
0100
0010
0100
1000
0001
0000
1000
0000
,
0010
0100
0001
0010
,
0100
0020
0000
0000
0000
0000
0030
0001
,
0100
0010
1000
0100
0010
0001
0200
0000
,
0000
0000
0300
0010
1000
0002
0000
0000
,
1000
1000
1003
0100
,
0010
0200
0000
0000
0000
0000
0300
1000
,
0010
0100
0001
0010
0100
1000
0020
0000
,
0000
0000
0030
0100
0001
2000
0000
0000
,
0001
0001
3001
2000
,
0000
0000
3000
0001
0100
1000
0200
0000
,
0300
0001
2000
0000
3000
0000
0002
0000
,
0000
0000
0003
1000
0100
0001
0200
0000
,
0300
1000
0002
0000
0003
0100
0010
0000
,
1000
0000
1010
0000
0000
1000
0001
0000
,
0100
0000
0101
0000
0000
0010
1000
0100
,
0000
0010
0001
0100
0000
0001
0002
0000
,
0003
1000
2000
0000
0000
0000
0000
0000
,
3000
0000
0001
0010
0100
1000
0020
0000
,
0130
0000
0010
1000
0000
0002
0000
0003
,
1000
0010
0100
0000
0001
0000
0010
0000
,
0100
0000
0020
0000
0000
0030
0001
0001
,
1000
1000
1001
0000
0010
0100
0010
0000
,
1000
0000
0002
0000
0000
1003
0000
0001
,
0010
0100
1000
0000
0010
0000
1000
0000
,
0100
0000
0010
0000
0001
0000
0100
0001
,
0010
0001
0010
0100
0010
0100
1000
0000
,
0010
0000
0200
0000
0000
0000
0000
0300
,
0001
1000
0002
0000
0003
0000
0010
0000
,
0100
1000
0001
2002
,
0000
0000
0000
0000
,
3003
0000
0000
0000
;

//---------------dance-single - ----------------
#NOTES:
     dance-single:
     :
     Easy:
     3:
     0.255,0.259,0.110,0.165,0.000,137.000,10.000,15.000,0.000,0.000:
0000
0000
0000
0001
,
0010
0011
0010
0100
,
1000
1100
1000
0001
,
0100
0101
0001
1000
,
0000
0010
0000
2020
,
0000
3030
0000
0000
0000
0000
1000
0000
,
0100
1000
0000
0001
,
0010
0001
0100
0010
,
1000
0010
0000
0100
,
0001
0100
0010
1000
,
0001
1000
0000
0100
,
0010
0100
1000
0010
,
0100
0001
1000
0200
,
0000
0000
0300
0010
,
0001
0011
0000
0001
,
0100
0101
0000
0010
,
1000
1010
0010
1000
,
0100
0010
0001
0200
,
0000
0000
0300
0010
,
0100
0001
1000
0002
,
0000
0000
0003
0020
,
0100
0100
0130
0020
,
0000
0000
0030
0100
,
1000
0001
1000
0020
,
0000
0000
0030
0200
,
0010
0010
0310
2000
,
0000
0000
3000
0001
,
0100
1000
0100
0002
,
0000
0000
0003
1000
,
0100
0001
0100
1000
,
1000
1000
0000
0001
,
0001
0001
0000
1000
,
0100
1000
0010
0100
,
0001
0010
0001
2000
,
0000
0000
3000
0001
,
0100
0001
0000
1000
,
0010
1000
0100
0010
,
0001
0100
0000
0001
,
0010
0100
1000
0010
,
0100
0010
0000
1000
,
0001
1000
0100
0010
,
0001
0100
0010
0200
,
0000
0000
0300
0010
,
1000
1010
0000
1000
,
0100
1100
0000
0010
,
0100
0001
1000
2002
,
0000
0000
0000
0000
,
3003
0000
0000
0000
;
